<?xml version="1.0" standalone="no"?>
<!DOCTYPE svg PUBLIC "-//W3C//DTD SVG 1.1//EN" "http://www.w3.org/Graphics/SVG/1.1/DTD/svg11.dtd" >
<!--
2013-9-30: Created.
-->
<svg>
<metadata>
Created by iconfont
</metadata>
<defs>

<font id="iconfont" horiz-adv-x="1024" >
  <font-face
    font-family="iconfont"
    font-weight="500"
    font-stretch="normal"
    units-per-em="1024"
    ascent="896"
    descent="-128"
  />
    <missing-glyph />
    
    <glyph glyph-name="quanping" unicode="&#58885;" d="M919.920093 170.585451q3.014188-26.122962 7.033105-58.776664t7.53547-66.814498 7.53547-67.819227 7.033105-60.786122q6.028376-47.222277-41.193901-44.208089-25.118232 2.009459-56.767205 5.526011t-64.805039 7.53547-65.809769 8.037834-59.781393 7.033105q-29.137149 3.014188-37.174984 16.578033t9.042564 30.644243q11.052022 10.047293 27.127691 27.630056t27.127691 28.634785q11.052022 12.056752 7.033105 22.104044t-16.075669 23.108774q-28.13242 27.127691-51.241194 49.231735t-51.241194 51.241194q-6.028376 6.028376-12.056752 13.061481t-9.042564 15.573304-1.004729 18.085127 13.061481 20.59695q6.028376 6.028376 10.047293 10.549658t8.037834 8.037834 8.540199 8.037834 11.554387 12.559116q20.094586 20.094586 37.174984 17.080398t37.174984-23.108774 41.193901-40.691536 47.222277-46.719912q19.089857-18.085127 32.653702-25.118232t26.625326 6.028376q9.042564 9.042564 22.606409 21.60168t23.611138 22.606409q17.080398 17.080398 30.644243 13.061481t16.578033-30.141879zM43.79615 512.19341q-3.014188 26.122962-7.033105 58.776664t-7.53547 66.814498-7.53547 67.819227-7.033105 60.786122q-3.014188 26.122962 6.53074 36.170255t33.658431 8.037834q25.118232-2.009459 56.767205-5.526011t64.805039-7.53547 65.809769-8.037834 59.781393-7.033105q30.141879-3.014188 37.677348-16.578033t-9.544928-30.644243q-10.047293-10.047293-24.615868-26.122962t-25.620597-27.127691q-12.056752-12.056752-8.037834-22.104044t17.080398-23.108774q13.061481-14.06621 24.615868-24.615868t22.606409-21.099315 23.108774-22.606409l25.118232-25.118232q6.028376-6.028376 11.554387-14.06621t8.037834-17.080398-0.502365-19.089857-13.061481-20.094586l-11.052022-11.052022q-4.018917-4.018917-7.53547-8.037834t-8.540199-8.037834l-11.052022-12.056752q-20.094586-20.094586-34.663161-15.070939t-34.663161 25.118232-38.179713 37.677348-44.208089 43.705724q-18.085127 18.085127-32.151337 25.118232t-27.127691-6.028376q-9.042564-10.047293-25.118232-24.615868t-26.122962-24.615868q-17.080398-17.080398-30.141879-13.061481t-16.075669 30.141879zM905.853883 811.602739q26.122962 3.014188 36.170255-6.53074t8.037834-34.663161-5.526011-56.767205-7.53547-64.805039-8.037834-65.809769-7.033105-59.781393q-3.014188-29.137149-16.578033-37.174984t-30.644243 10.047293q-10.047293 10.047293-26.122962 24.615868t-27.127691 25.620597q-12.056752 11.052022-22.104044 7.53547t-23.108774-16.578033q-27.127691-27.127691-47.724641-49.231735t-48.729371-50.236465q-6.028376-6.028376-14.06621-11.554387t-17.080398-8.037834-19.089857 0.502365-20.094586 14.06621q-6.028376 6.028376-10.549658 10.047293t-8.540199 8.037834-8.540199 8.037834-11.554387 12.056752q-20.094586 20.094586-16.075669 35.165525t25.118232 35.165525l38.179713 40.189172q19.089857 20.094586 45.212818 46.217547 19.089857 18.085127 26.122962 32.151337t-7.033105 26.122962q-9.042564 9.042564-23.108774 24.615868t-24.113503 25.620597q-17.080398 17.080398-13.061481 30.141879t30.141879 16.075669 58.776664 7.033105 67.316863 7.53547 67.819227 7.53547 60.283758 7.033105zM350.238584 255.987441q6.028376-6.028376 10.549658-10.047293t8.540199-8.037834l8.037834-9.042564 12.056752-11.052022q20.094586-20.094586 17.582763-36.672619t-23.611138-37.677348q-19.089857-19.089857-40.189172-40.691536t-47.222277-47.724641q-18.085127-18.085127-22.606409-29.639514t8.540199-24.615868q10.047293-9.042564 22.606409-22.606409t22.606409-23.611138q17.080398-17.080398 12.559116-30.141879t-30.644243-16.075669-58.274299-7.033105-66.814498-8.037834-68.321592-8.037834-60.786122-7.033105q-25.118232-2.009459-35.66789 7.53547t-8.540199 33.658431q2.009459 25.118232 5.526011 56.767205t7.53547 64.805039 8.037834 65.809769 7.033105 59.781393q3.014188 30.141879 16.578033 37.677348t30.644243-9.544928q10.047293-10.047293 27.630056-26.122962t28.634785-27.127691q12.056752-12.056752 20.094586-10.549658t20.094586 14.568575q13.061481 13.061481 25.118232 25.620597t24.113503 24.615868 24.615868 25.118232 26.625326 27.127691q6.028376 6.028376 13.061481 12.056752t15.573304 9.042564 18.085127 0.502365 20.59695-13.563845z"  horiz-adv-x="1024" />

    
    <glyph glyph-name="appyingyong" unicode="&#58907;" d="M358.4 670.9c16.2 0 30.1-5.6 41.7-16.8 11.6-11.2 17.3-24.9 17.3-41.2l0-233.8c0-16.2-5.7-30.1-17.3-41.7-11.6-11.6-25.4-17.3-41.7-17.3L124.6 320.1c-16.2 0-29.9 5.7-41.2 17.3-11.2 11.6-16.8 25.4-16.8 41.7L66.6 612.9c0 16.2 5.6 29.9 16.8 41.2 11.2 11.2 24.9 16.8 41.2 16.8L358.4 670.9 358.4 670.9zM358.4 203.3c16.2 0 30.1-5.6 41.7-16.8 11.6-11.2 17.3-24.9 17.3-41.2l0-234.8c0-16.2-5.7-29.9-17.3-41.2-11.6-11.2-25.4-16.8-41.7-16.8L124.6-147.5c-16.2 0-29.9 5.6-41.2 16.8s-16.8 24.9-16.8 41.2L66.6 145.3c0 16.2 5.6 29.9 16.8 41.2 11.2 11.3 24.9 16.8 41.2 16.8L358.4 203.3zM826.9 203.3c16.2 0 29.9-5.6 41.2-16.8 11.2-11.2 16.8-24.9 16.8-41.2l0-234.8c0-16.2-5.6-29.9-16.8-41.2-11.2-11.2-24.9-16.8-41.2-16.8L593.2-147.5c-16.2 0-30.1 5.6-41.7 16.8-11.6 11.2-17.3 24.9-17.3 41.2L534.2 145.3c0 16.2 5.7 29.9 17.3 41.2 11.6 11.2 25.4 16.8 41.7 16.8L826.9 203.3zM943.1 568.1c12.5-12.5 18.7-27.1 18.7-43.9 0-16.8-6.2-31.2-18.7-43.1l-174-174c-12.5-12.5-26.9-18.7-43.4-18.7s-31 6.2-43.4 18.7l-174 174c-11.9 11.9-17.8 26.2-17.8 43.1 0 16.8 5.9 31.5 17.8 43.9l173.9 173.9c12.5 11.9 26.9 17.8 43.4 17.8s31-5.9 43.4-17.8L943.1 568.1z"  horiz-adv-x="1024" />

    
    <glyph glyph-name="wendujithermometer31" unicode="&#58931;" d="M703.552 346.72 703.552 736.576c0 83.392-68.32 151.232-151.712 151.232-83.36 0-151.68-67.84-151.68-151.232l0-389.76c-68.192-48.544-110.88-126.944-110.88-209.216 0-142.336 114.944-258.144 256.16-258.144 144.032 0 261.6 115.808 261.6 258.144C807.008 223.232 768.32 299.936 703.552 346.72zM545.504-48.416c-101.408 0-183.936 83.456-183.936 186.016 0 38.432 13.024 75.744 35.968 106.816l136.48 0c9.952 0 18.048 8.768 18.048 18.752 0 9.952-8.064 18.752-18.048 18.752l-99.968 0c6.592 5.152 13.12 9.92 20.448 14.272l17.28 10.464 0 50.272 62.24 0c9.952 0 18.048 7.072 18.048 17.056 0 9.952-8.064 17.056-18.048 17.056l-62.24 0 0 34.08 62.24 0c9.952 0 18.048 7.072 18.048 17.056 0 9.952-8.064 17.056-18.048 17.056l-62.24 0 0 40.896 62.24 0c9.952 0 18.048 7.072 18.048 17.056s-8.064 17.056-18.048 17.056l-62.24 0 0 34.08 62.24 0c9.952 0 18.048 7.072 18.048 17.056 0 9.952-8.064 17.056-18.048 17.056l-62.24 0L471.776 643.296l62.24 0c9.952 0 18.048 7.072 18.048 17.056s-8.064 17.056-18.048 17.056l-62.24 0 0 59.2c0 43.616 36.512 79.104 80.096 79.104 43.616 0 80.128-35.488 80.128-79.104l0-429.92 17.088-10.464c54.72-32.416 85.824-90.208 85.824-158.592C734.88 35.04 649.76-48.416 545.504-48.416zM430.624 162.624c-3.904-13.632-6.56-25.152-6.56-38.496 0-68.48 55.52-124.224 123.968-124.224 68.48 0 123.968 55.904 123.968 124.352 0 13.344-2.656 24.704-6.56 38.368L430.624 162.624z"  horiz-adv-x="1024" />

    
    <glyph glyph-name="iconset0480" unicode="&#59239;" d="M554.666667 249.6 554.666667 512c0 23.466667-19.2 42.666667-42.666667 42.666667s-42.666667-19.2-42.666667-42.666667l0-262.4c-49.066667-17.066667-85.333333-64-85.333333-121.6 0-70.4 57.6-128 128-128s128 57.6 128 128C640 183.466667 603.733333 230.4 554.666667 249.6zM640 298.666667 640 725.333333c0 70.4-57.6 128-128 128s-128-57.6-128-128l0-426.666667c-51.2-38.4-85.333333-100.266667-85.333333-170.666667 0-117.333333 96-213.333333 213.333333-213.333333 117.333333 0 213.333333 96 213.333333 213.333333C725.333333 198.4 691.2 260.266667 640 298.666667zM512-42.666667c-93.866667 0-170.666667 76.8-170.666667 170.666667 0 64 34.133333 117.333333 85.333333 147.2L426.666667 725.333333c0 46.933333 38.4 85.333333 85.333333 85.333333s85.333333-38.4 85.333333-85.333333l0-450.133333c51.2-29.866667 85.333333-85.333333 85.333333-147.2C682.666667 34.133333 605.866667-42.666667 512-42.666667z"  horiz-adv-x="1024" />

    
    <glyph glyph-name="danganguanli" unicode="&#58889;" d="M864.799744 514.187264l-4.774912 0 0 74.200064c0 31.299584-25.499648 56.824832-56.824832 56.824832L493.825024 645.21216l0 39.4752c0 31.299584-25.499648 56.800256-56.800256 56.800256L159.224832 741.487616c-31.325184 0-56.824832-25.499648-56.824832-56.800256l0-601.40032c0-31.325184 25.499648-56.774656 56.824832-56.774656l643.975168 0c31.325184 0 56.824832 25.450496 56.725504 55.725056L921.6 457.387008C921.6 488.687616 896.100352 514.187264 864.799744 514.187264zM152.875008 659.412992c0 24.5248 7.074816 31.625216 31.599616 31.625216l227.300352 0c24.450048 0 31.550464-7.100416 31.550464-31.625216l0-58.375168 1.574912-6.299648 333.100032 0c24.474624 0 31.550464-7.100416 31.550464-31.550464l0-49.000448-588.8 0c-31.299584 0-56.800256-25.499648-56.75008-55.825408l-11.124736-72.349696L152.876032 659.412992zM809.549824 108.587008c0-24.5248-7.074816-31.599616-31.599616-31.599616L184.474624 76.987392c-24.5248 0-31.599616 7.074816-31.699968 30.425088l61.674496 324.724736c0 24.500224 7.100416 31.599616 31.550464 31.599616l593.524736 0c24.474624 0 31.57504-7.100416 31.675392-30.425088L809.549824 108.587008z"  horiz-adv-x="1024" />

    
    <glyph glyph-name="icon-refresh" unicode="&#58974;" d="M55.935 631.511c0 0 85.897 132.548 221.814 203.673 135.916 71.122 303.369 50.647 413.188-18.32 109.819-68.97 146.792-127.16 146.792-127.16l94.595 53.88c0 0 19.576 9.697 19.576-12.932v-338.38c0 0 0-30.174-22.838-19.395-19.211 9.063-226.959 127.198-292.425 164.467-35.95 16.035-4.365 29.062-4.365 29.062l91.284 52.174c0 0-52.069 65.21-128.279 99.745-81.576 42.502-157.948 47.542-251.498 12.224-61.003-23.025-132.823-81.988-184.554-169.083l-103.292 70.045zM904.057 184.302c0 0-85.897-132.55-221.816-203.671-135.917-71.123-303.366-50.652-413.187 18.315-109.826 68.972-146.791 127.165-146.791 127.165l-94.6-53.88c0 0-19.572-9.703-19.572 12.932l0 338.377c0 0 0 30.171 22.832 19.397 19.212-9.068 226.965-127.198 292.431-164.471 35.95-16.035 4.366-29.058 4.366-29.058l-91.285-52.176c0 0 52.071-65.207 128.28-99.745 81.573-42.499 157.942-47.541 251.497-12.222 60.999 23.026 132.82 81.983 184.547 169.083l103.3-70.047zM904.057 184.302z"  horiz-adv-x="1024" />

    
    <glyph glyph-name="shouye1" unicode="&#58936;" d="M759.048629 344.262974 440.73184 25.945161c-32.891108-32.850176-86.756923-32.443923-120.096239 0.89437L155.479097 191.997058c-33.348526 33.358759-33.745569 87.224574-0.89437 120.096239l318.316789 318.316789c12.20088 12.190647 12.20088 31.976272 0 44.166919-12.20088 12.20088-31.966039 12.20088-44.166919 0L110.416785 356.260216c-57.211003-57.221236-56.814983-150.729933 0.89437-208.429053l60.494793-60.494793-97.859795-97.859795c-12.20088-12.190647-12.20088-31.976272 0-44.166919 6.099928-6.099928 14.09195-9.150404 22.082948-9.150404s15.98302 3.050476 22.082948 9.150404l97.859795 97.859795 60.494793-60.494793c29.017894-29.017894 67.073628-43.546795 105.038288-43.546795 37.517475 0 74.942853 14.20349 103.390765 42.651402l318.316789 318.316789c12.20088 12.190647 12.20088 31.976272 0 44.166919C791.014668 356.46283 771.249509 356.46283 759.048629 344.262974zM906.84986 530.476049c6.099928-6.099928 14.09195-9.150404 22.082948-9.150404 7.992021 0 15.98302 3.050476 22.082948 9.150404 12.20088 12.190647 12.20088 31.976272 0 44.166919L703.281511 822.378236c-12.20088 12.20088-31.966039 12.20088-44.166919 0-12.20088-12.190647-12.20088-31.976272 0-44.166919l101.784174-101.784174-68.928882-68.928882L498.654041 800.814104c-12.20088 12.20088-31.966039 12.20088-44.166919 0-12.20088-12.190647-12.20088-31.976272 0-44.166919l430.797583-430.797583c6.099928-6.099928 14.09195-9.150404 22.082948-9.150404 7.990998 0 15.98302 3.050476 22.082948 9.150404 12.20088 12.190647 12.20088 31.976272 0 44.166919L736.136803 563.331341l68.928882 68.928882L906.84986 530.476049zM449.40436 518.621047l-22.855544-22.855544c-12.20088-12.190647-12.20088-31.976272 0-44.166919 6.099928-6.099928 14.09195-9.150404 22.082948-9.150404 7.990998 0 15.98302 3.050476 22.082948 9.150404l22.855544 22.855544c12.20088 12.190647 12.20088 31.976272 0 44.166919C481.370399 530.821927 461.60524 530.821927 449.40436 518.621047zM623.121843 299.170986l22.865777 22.855544c12.20088 12.20088 12.20088 31.976272 0.010233 44.177152-12.20088 12.20088-31.976272 12.190647-44.177152 0.010233l-22.865777-22.856567c-12.20088-12.20088-12.20088-31.976272-0.010233-44.177152 6.099928-6.099928 14.102183-9.150404 22.093181-9.150404S617.021915 293.080268 623.121843 299.170986zM403.764903 384.434905c-16.798595 3.929496-33.596166-6.506181-37.517475-23.303752-4.834098-20.687158-4.676509-64.039525 26.560936-95.27697 31.085996-31.087019 74.538647-31.676443 95.318926-27.121707 16.70138 3.659343 27.14729 20.029172 23.695678 36.766368-3.439332 16.740266-19.917632 27.567869-36.70804 24.329105-0.230244-0.042979-23.595394-4.342912-38.136575 10.19827-14.137998 14.137998-10.125615 35.734876-9.827833 37.219693C430.865121 363.933989 420.458097 380.552481 403.764903 384.434905z"  horiz-adv-x="1024" />

    
    <glyph glyph-name="tuichuquanping-copy" unicode="&#58947;" d="M638.272 767.936l82.048-82.112 210.24 210.176 91.52-91.456-210.176-210.112 81.856-82.048c0-35.328-28.352-63.872-63.808-63.872h-191.68c-35.2 0-63.808 28.544-63.808 63.872v191.616c0 35.264 28.608 63.936 63.808 63.936v0 0zM128.064 257.664c0 35.136 28.672 63.808 63.872 63.808h191.68c35.328 0 63.872-28.672 63.872-63.808v-191.68c0-35.392-28.544-63.808-63.872-63.808l-82.048 81.792-210.176-210.112-91.392 91.392 210.176 210.304-82.112 82.112zM638.272 321.472h191.68c35.456 0 63.808-28.672 63.808-63.808l-81.856-82.112 210.176-210.304-91.52-91.392-210.24 210.112-82.048-81.792c-35.2 0-63.808 28.416-63.808 63.808l0 191.68c0 35.136 28.608 63.808 63.808 63.808v0 0zM91.392 896l210.176-210.24 82.048 82.112c35.328 0 63.872-28.608 63.872-63.872v-191.68c0-35.328-28.544-63.872-63.872-63.872h-191.68c-35.2 0-63.872 28.544-63.872 63.872l82.112 82.048-210.176 210.176 91.392 91.456zM91.392 896z"  horiz-adv-x="1024" />

    
    <glyph glyph-name="arrow-2-copy" unicode="&#58942;" d="M581.245 314.755l138.487 138.487h-276.974z"  horiz-adv-x="2048" />

    
    <glyph glyph-name="zhankai" unicode="&#58924;" d="M664.609 775.196h-571.16c-13.671 0-24.841-10.9-25.206-24.538v-76.929c0.364-13.638 11.534-24.538 25.206-24.538h571.16c13.901 0 25.222 11.267 25.222 25.223v75.557c0.001 13.958-11.322 25.224-25.222 25.224zM93.442 338.423h495.547c13.957 0 25.223 11.267 25.223 25.223v75.557c0 13.957-11.267 25.223-25.223 25.223l-495.547 0c-13.59 0-24.71-10.77-25.2-24.293v-77.415c0.491-13.524 11.609-24.295 25.2-24.295zM664.609 153.628h-571.16c-13.671 0-24.841-10.9-25.206-24.538v-76.929c0.364-13.638 11.534-24.538 25.206-24.538h571.16c13.901 0 25.222 11.267 25.222 25.223v75.557c0.001 13.958-11.322 25.224-25.222 25.224zM952.532 415.864l-209.575 161.82c-11.659 9.416-33.742 4.092-33.742-23.878v-309.626c0-33.967 22.084-33.911 33.742-23.878l209.575 161.82c11.602 8.743 10.817 24.381 0 33.742z"  horiz-adv-x="1024" />

    
    <glyph glyph-name="shouqi" unicode="&#58943;" d="M678.685 774.965h-572.869c-13.996 0-25.283-11.343-25.283-25.283v-75.792c0-13.996 11.287-25.283 25.283-25.283h572.87c13.939 0 25.283 11.287 25.283 25.283v75.792c-0.001 13.939-11.344 25.283-25.284 25.283M105.799 336.874h497.078c13.939 0 25.283 11.343 25.283 25.283v75.792c0 13.996-11.343 25.283-25.283 25.283h-497.078c-13.939 0-25.283-11.287-25.283-25.283v-75.792c-0-13.939 11.343-25.283 25.283-25.283M678.685 151.53h-572.869c-13.996 0-25.283-11.343-25.283-25.283v-75.792c0-13.996 11.287-25.283 25.283-25.283h572.87c13.939 0 25.283 11.287 25.283 25.283v75.792c-0.001 13.939-11.344 25.283-25.284 25.283M939.872 578.522l-210.22-162.307c-11.569-8.747-10.836-24.493 0-33.861l210.22-162.307c11.682-9.425 33.861-4.12 33.861 23.985v310.56c0 34.030-22.179 33.974-33.861 23.929z"  horiz-adv-x="1024" />

    
    <glyph glyph-name="circle" unicode="&#59023;" d="M950.848 384q0-119.424-58.848-220.288t-159.712-159.712-220.288-58.848-220.288 58.848-159.712 159.712-58.848 220.288 58.848 220.288 159.712 159.712 220.288 58.848 220.288-58.848 159.712-159.712 58.848-220.288z"  horiz-adv-x="1024" />

    
    <glyph glyph-name="tongjifenxi" unicode="&#58887;" d="M492.654908 18.804531c-47.443545 0-93.477998 9.295714-136.821155 27.628244-41.856293 17.704221-79.4454 43.045375-111.720478 75.320453s-57.617256 69.863161-75.320453 111.720478c-18.332531 43.343157-27.628244 89.376587-27.628244 136.820132 0 47.444569 9.295714 93.476975 27.628244 136.821155 17.704221 41.856293 43.045375 79.4454 75.320453 111.720478s69.863161 57.617256 111.720478 75.320453c43.343157 18.333554 89.37761 27.628244 136.821155 27.628244l16.226566-0.062422 0-340.54607 335.432609 0-0.201591-15.549138c-1.210571-92.904946-38.307468-180.056865-104.456027-245.400083C673.447531 54.822862 585.727677 18.804531 492.654908 18.804531zM478.182288 690.761616c-170.198334-7.589862-306.319547-148.431587-306.319547-320.467779 0-176.884616 143.906527-320.79012 320.791144-320.79012 169.383782 0 309.87042 133.629463 320.181253 300.971749l-334.652849 0L478.182288 690.761616zM543.013853 768.522654l0-359.266433 353.60141 0c0.021489 1.568728 0.031722 3.139503 0.031722 4.713348C896.648009 609.478358 738.405985 768.02328 543.013853 768.522654z"  horiz-adv-x="1024" />

    
    <glyph glyph-name="qihuocaigou" unicode="&#58958;" d="M332.693218 121.837138c-29.327956 0-53.113685-23.907503-53.113685-53.377698 0-29.466102 23.785729-53.378721 53.113685-53.378721 29.327956 0 53.097312 23.912619 53.097312 53.378721C385.79053 97.929636 362.021174 121.837138 332.693218 121.837138L332.693218 121.837138 332.693218 121.837138 332.693218 121.837138 332.693218 121.837138zM704.417381 121.837138c-29.356608 0-53.131081-23.907503-53.131081-53.377698 0-29.466102 23.774473-53.378721 53.131081-53.378721 29.29828 0 53.097312 23.912619 53.097312 53.378721C757.514693 97.929636 733.715661 121.837138 704.417381 121.837138L704.417381 121.837138 704.417381 121.837138 704.417381 121.837138 704.417381 121.837138zM757.066485 148.499381 325.83195 148.499381c-38.280862 0-71.900563 30.396287-76.603679 69.263503l-45.00296 318.614571-25.622564 148.926868c-1.601474 12.964266-13.387915 23.601534-24.910343 23.601534l-33.833573 0c-14.648628 0-26.536376 11.941983-26.536376 26.662243 0 14.732539 11.882632 26.720571 26.536376 26.720571l33.846876 0c38.715767 0 72.734558-30.438243 77.420277-69.263503l25.592888-148.32414 45.184085-320.001151c1.487887-12.372795 12.646018-22.843264 23.912619-22.843264l431.250908 0c14.70798 0 26.582425-11.900028 26.582425-26.686802C783.64891 160.398386 771.774465 148.499381 757.066485 148.499381L757.066485 148.499381 757.066485 148.499381 757.066485 148.499381zM461.795575 628.849544l-156.074661 0c-14.648628 0-26.535353 11.958356-26.535353 26.678616 0 14.732539 11.886725 26.690896 26.535353 26.690896l163.238828 0M806.443056 403.088754l-10.869558-53.298903c-4.51892-37.44175-38.117133-67.833945-76.397994-67.833945l-358.210381-26.608008c-0.641613-0.088004-1.341554-0.088004-1.949398-0.088004l0 0 0 0 0 0c-13.781888 0-25.454742 10.666944-26.464745 24.7548-1.093914 14.649652 9.920954 27.446096 24.498974 28.514427l360.218108 26.662243c13.216 0.138146 24.360827 10.55438 25.820062 22.423709l9.508561 32.1707M707.652052 402.065448c125.653815 0 227.53418 101.878319 227.53418 227.53418 0 125.653815-101.880365 227.514737-227.53418 227.514737-125.654838 0-227.535203-101.860922-227.535203-227.514737C480.116849 503.943766 581.997214 402.065448 707.652052 402.065448L707.652052 402.065448zM709.429535 789.564899c89.991594 0 162.948209-72.937173 162.948209-162.927743 0-90.028433-72.956615-162.948209-162.948209-162.948209-89.991594 0-162.948209 72.919776-162.948209 162.948209C546.480302 716.626703 619.437941 789.564899 709.429535 789.564899L709.429535 789.564899zM688.690188 591.676923l113.76709 0c10.480702 0 18.961864 8.480138 18.961864 18.924002 0 10.480702-8.481162 18.99768-18.961864 18.99768l-94.805226 0 0 94.806249c0 10.44284-8.481162 18.960841-18.961864 18.960841-10.481725 0-18.960841-8.518001-18.960841-18.960841l0-113.804952C669.728324 600.156038 678.208463 591.676923 688.690188 591.676923L688.690188 591.676923z"  horiz-adv-x="1024" />

    
    <glyph glyph-name="fuwuzhongxin" unicode="&#58896;" d="M139.544 98.776c-62.164 20.904-106.918 79.647-106.918 148.842 0 69.211 44.754 127.954 106.918 148.87-49.387-31.186-82.187-86.15-82.187-148.87 0-62.667 32.8-117.7 82.187-148.842zM882.296 98.775c49.328 31.143 82.139 86.192 82.14 148.842 0 62.717-32.81 117.683-82.14 148.875 62.104-20.92 106.869-79.664 106.869-148.875-0.002-69.195-44.766-127.938-106.869-148.842zM1012.723 247.618c0 93.586-72.2 170.335-163.938 177.591-1.942 85.41-36.109 165.413-96.719 226.022-62.43 62.429-145.438 96.809-233.736 96.809-88.283 0-171.288-34.38-233.722-96.808-60.491-60.486-94.653-140.284-96.726-225.491-96.829-1.825-174.744-80.887-174.744-178.122 0-98.312 79.652-178.018 177.973-178.122 5.208-10.439 15.985-17.613 28.443-17.613 17.548 0 31.773 14.226 31.773 31.773l0 333.834c0 147.226 119.777 267.002 267.003 267.002s267.004-119.776 267.004-267.002v-333.836c0-17.546 14.226-31.773 31.773-31.773 12.6 0 23.488 7.337 28.627 17.972 93.181 5.77 166.989 83.143 166.989 177.764z"  horiz-adv-x="1024" />

    
    <glyph glyph-name="xitong" unicode="&#58894;" d="M423.844408 611.886206c-39.870006 0-72.156392-31.870406-72.156392-71.05778 0-39.25137 32.275719-71.05778 72.156392-71.05778 39.838008 0 72.124394 31.80641 72.124394 71.05778C495.968802 580.015799 463.693082 611.886206 423.844408 611.886206zM676.237121 271.348566l20.372314 20.062997c22.558872 22.185558 22.558872 58.183758 0 80.369315l-35.25157 34.686266c11.370098 19.433695 20.244321 40.307318 26.494675 62.439545l38.056764 0c31.870406 0 57.746446 25.438728 57.746446 56.807827l0 28.435911c0 31.369099-25.876039 56.871823-57.746446 56.871823l-37.619452 0c-5.941036 21.812242-14.495275 42.621869-25.556055 61.938236l33.875639 33.310334c22.558872 22.249555 22.558872 58.247755 0 80.369315l-20.372314 20.126994c-22.558872 22.185558-59.122377 22.185558-81.617252 0l-33.246338-32.681033c-20.276319 11.626086-42.216556 20.681633-65.40473 26.931986l0 38.184758C495.968802 870.561272 470.124761 896 438.254354 896l-28.841225 0c-31.870406 0-57.714447-25.438728-57.714447-56.807827l0-38.184758c-23.188174-6.250354-45.117744-15.316567-65.436728-26.931986l-33.182341 32.681033c-22.526874 22.185558-59.090378 22.185558-81.617252 0l-20.404313-20.126994c-22.526874-22.121561-22.526874-58.119761 0-80.369315l33.875639-33.310334c-11.028782-19.316367-19.593687-40.125994-25.534723-61.938236l-37.65145 0C89.834441 611.011582 64.022399 585.519524 64.022399 554.13976l0-28.435911c0-31.369099 25.812042-56.807827 57.714447-56.807827l38.088763 0c6.186358-22.121561 15.092578-42.995183 26.441345-62.439545l-35.219572-34.686266c-22.526874-22.185558-22.526874-58.183758 0-80.369315l20.404313-20.062997c22.526874-22.185558 59.090378-22.185558 81.617252 0l35.432895 34.878256c19.689683-10.996783 40.872623-19.625686 63.186174-25.556055l0-36.435511c0-31.369099 25.844041-56.807827 57.714447-56.807827l28.841225 0c31.870406 0 57.714447 25.438728 57.714447 56.807827l0 36.435511c22.34555 5.941036 43.496492 14.559272 63.154175 25.556055l35.496892-34.878256C617.114744 249.152342 653.678249 249.152342 676.237121 271.348566zM423.844408 382.777661c-87.654284 0-158.744063 70.001833-158.744063 156.237521 0 86.374348 71.089779 156.301518 158.744063 156.301518s158.712064-69.937836 158.712064-156.301518C582.556472 452.768829 511.498692 382.777661 423.844408 382.777661zM931.979001 77.480926l-18.249755 0c-2.879856 10.623469-6.996983 20.681633-12.372714 30.057164l16.372514 16.19119c10.996783 10.751462 10.996783 28.19059 0 38.995383l-9.876839 9.748846c-10.932786 10.751462-28.627902 10.751462-39.624686 0l-16.063197-15.871206c-9.812842 5.621052-20.500308 10.058164-31.689083 13.066014l0 18.495075c0 15.25257-12.564705 27.561289-27.9986 27.561289l-14.004633 0c-15.497892 0-27.9986-12.308718-27.9986-27.561289l0-18.495075c-11.25277-2.997183-21.876239-7.434295-31.753079-13.066014l-16.127194 15.871206c-10.879456 10.751462-28.627902 10.751462-39.560689 0l-9.940836-9.748846c-10.879456-10.815459-10.879456-28.243921 0-38.995383l16.436511-16.19119c-5.311734-9.375531-9.439528-19.433695-12.372714-30.057164L638.926987 77.480926c-15.433895 0-27.9986-12.308718-27.9986-27.561289l0-13.748646c0-15.25257 12.564705-27.561289 27.9986-27.561289l18.495075 0c2.997183-10.751462 7.316967-20.873623 12.810026-30.313151l-17.119144-16.809827c-10.879456-10.751462-10.879456-28.19059 0-38.995383l9.940836-9.684849c10.932786-10.815459 28.681233-10.815459 39.560689 0l17.247138 16.873823c9.503525-5.311734 19.753679-9.503525 30.622469-12.372714l0-17.684449c0-15.188574 12.500708-27.561289 27.9986-27.561289l14.004633 0c15.433895 0 27.9986 12.372714 27.9986 27.561289l0 17.684449c10.751462 2.879856 21.065614 7.06098 30.622469 12.372714l17.119144-16.873823c10.996783-10.815459 28.681233-10.815459 39.624686 0l9.876839 9.684849c10.996783 10.815459 10.996783 28.243921 0 38.995383l-17.065814 16.809827c5.503725 9.439528 9.812842 19.561689 12.810026 30.313151l18.495075 0c15.497892 0 27.9986 12.308718 27.9986 27.561289l0 13.748646C959.977601 65.161542 947.476893 77.480926 931.979001 77.480926zM785.490325-33.20154c-42.557872 0-76.998817 33.939636-76.998817 75.80421s34.440945 75.80421 76.998817 75.80421c42.493875 0 76.998817-33.939636 76.998817-75.80421S827.984201-33.20154 785.490325-33.20154zM785.490325 77.918237c-19.369699 0-34.995583-15.433895-34.995583-34.440945 0-19.06038 15.625886-34.440945 34.995583-34.440945 19.316367 0 34.995583 15.369899 34.995583 34.440945C820.485909 62.484343 804.796027 77.918237 785.490325 77.918237z"  horiz-adv-x="1024" />

    
    <glyph glyph-name="tushuguan" unicode="&#58925;" d="M502.102582 741.734544l-13.638625 5.375427L355.093391 782.713864c-25.367761 6.633071-41.575908-2.574638-48.272423-27.653827L148.056034 95.185128c-6.690376-25.709545 2.51631-41.891086 27.910677-48.871057l133.343961-35.545564c25.736151-6.973832 41.977044 2.543939 48.63672 28.284183l158.823262 659.502425c5.406127 20.303418 0.598634 34.602076-14.613836 43.180452l-0.030699 0L502.102582 741.735567zM437.302741 512.170125c-1.572822-6.003737-4.745071-11.125385-9.463536-15.243169-4.40431-3.487428-8.865925-4.461615-12.955056-3.514033l-1.083681 0-120.958886 32.683377c-4.722558 1.285273-7.922437 4.40431-9.809413 9.837042-1.11438 2.687202-1.771343 5.575995-1.888 8.520047-0.197498 2.916423 0.116657 5.949502 0.916882 8.978489 1.600451 6.291287 4.746094 11.094686 9.521864 14.613836 4.086062 4.090155 8.893554 5.375427 13.666254 4.090155l120.958886-32.715099 0.629333 0c0.804319-0.287549 1.401929-0.970094 2.116197-1.401929 3.03308-1.77032 5.603625-4.376681 7.433296-8.748245 1.11438-2.548032 1.774413-5.235235 1.917676-8.124028 0.144286-2.885723-0.170892-5.860475-0.974188-9.032724L437.302741 512.170125zM457.722816 591.980845c-0.170892-1.717108-0.170892-3.374864-0.715291-5.204535-1.11438-4.345981-3.433192-7.949043-6.205329-11.063987-1.087774-1.200338-2.000564-2.547009-3.316535-3.545756-1.289366-1.172709-2.601244-1.717108-3.919263-2.373047-2.974751-1.572822-5.89015-2.372024-8.776897-1.743714l-0.660032 0L313.197188 600.419028c-4.771677 1.546216-8.263198 5.060249-10.492982 10.494005-1.572822 3.859911-1.689479 7.921413-1.231037 12.124132 0.169869 1.658779 0.169869 3.289929 0.601704 5.03262 0.571005 1.802042 1.428535 3.263323 2.198062 4.862751 1.886977 4.003174 4.14746 7.549953 7.351432 10.066263 4.489244 3.801583 9.207709 5.060249 13.953803 3.460822l120.958886-32.369222 0.601704 0c2.741437-1.029446 4.803399-3.145643 6.574742-5.661953 0.971118-1.316995 1.914606-2.574638 2.660596-4.206812 1.11438-2.687202 1.743714-5.460362 1.856277-8.376785 0.085958-1.289366-0.36839-2.602268-0.511653-3.918239L457.722816 591.980845zM683.19708 718.030679c-2.570545-6.031367-3.828188-12.982686-3.828188-20.959358l0-684.353416c0-8.263198 1.257643-15.242146 3.828188-20.990057 2.831488-5.635347 6.349615-8.524141 10.438747-8.524141 4.176113 0 7.352455 2.888793 10.17985 8.524141 2.862187 5.746888 4.403287 12.722766 4.403287 20.990057L708.218964 697.071322c0 7.976672-1.572822 14.927991-4.403287 20.959358-2.858094 5.747911-6.003737 8.609075-10.17985 8.609075C689.546695 726.639754 686.028569 723.808266 683.19708 718.030679L683.19708 718.030679zM665.698544 697.071322c0 7.921413-1.231037 14.896268-3.801583 20.959358-3.145643 5.720282-6.66377 8.550747-10.80816 8.550747-4.120854 0-7.266497-2.830465-10.151197-8.550747-2.831488-6.062066-4.40431-13.037944-4.40431-20.959358l0-684.353416c0-8.236592 1.572822-15.242146 4.40431-20.963451 2.916423-5.688559 6.061043-8.550747 10.151197-8.550747 4.143367 0 7.633864 2.862187 10.80816 8.550747 2.573615 5.720282 3.801583 12.726859 3.801583 20.963451L665.698544 697.071322 665.698544 697.071322zM853.031117 718.030679c-2.574638-6.031367-3.774977-12.982686-3.774977-20.959358l0-684.353416c0-8.263198 1.226944-15.242146 3.774977-20.990057 2.858094-5.635347 6.344498-8.524141 10.434653-8.524141 4.205788 0 7.379061 2.888793 10.209526 8.524141 2.831488 5.746888 4.377704 12.722766 4.377704 20.990057L878.053 697.071322c0 7.976672-1.573845 14.927991-4.377704 20.959358-2.830465 5.747911-6.003737 8.609075-10.209526 8.609075C859.375615 726.639754 855.889211 723.808266 853.031117 718.030679L853.031117 718.030679 853.031117 718.030679zM835.558164 697.071322c0 7.921413-1.231037 14.896268-3.832282 20.959358-3.145643 5.720282-6.66377 8.550747-10.780531 8.550747-4.119831 0-7.293103-2.830465-10.18292-8.550747-2.827395-6.062066-4.400217-13.037944-4.400217-20.959358l0-684.353416c0-8.236592 1.600451-15.242146 4.400217-20.963451 2.919493-5.688559 6.065136-8.550747 10.18292-8.550747 4.116761 0 7.634888 2.862187 10.780531 8.550747 2.602268 5.720282 3.832282 12.726859 3.832282 20.963451L835.558164 697.071322 835.558164 697.071322zM602.844008 723.121628c-6.034437 5.688559-13.010315 8.578376-20.990057 8.578376-8.236592 0-15.211447-2.889817-21.219277-8.578376-5.746888-5.746888-8.550747-12.725836-8.550747-20.963451l0-689.129186c0-8.232498 2.830465-15.211447 8.550747-20.959358 6.003737-5.977132 12.982686-8.865925 21.219277-8.865925 8.008394 0 14.95562 2.888793 20.990057 8.865925 5.746888 5.746888 8.606005 12.726859 8.606005 20.959358L611.450013 702.158177C611.450013 710.395792 608.591919 717.401346 602.844008 723.121628L602.844008 723.121628 602.844008 723.121628zM736.843908 723.121628c-5.688559-5.746888-8.578376-12.725836-8.578376-20.963451l0-689.129186c0-8.232498 2.889817-15.211447 8.578376-20.959358 6.003737-5.977132 12.982686-8.865925 20.963451-8.865925 8.264221 0 15.239076 2.888793 21.274536 8.865925 5.688559 5.746888 8.550747 12.726859 8.550747 20.959358L787.632641 702.158177c0 8.236592-2.862187 15.243169-8.550747 20.963451-6.03546 5.688559-12.982686 8.578376-21.274536 8.578376C749.826594 731.701027 742.847645 728.810187 736.843908 723.121628L736.843908 723.121628 736.843908 723.121628zM736.843908 723.121628"  horiz-adv-x="1024" />

    
    <glyph glyph-name="caiwu" unicode="&#59002;" d="M849.822716 580.454748 176.769047 580.454748c-60.418236 0-109.566514-49.148277-109.566514-109.566514l0-414.788973c0-60.418037 49.148277-109.566514 109.566514-109.566514l673.05347 0c60.403446 0 109.566514 49.148477 109.566514 109.566514L959.38903 470.888234C959.38903 531.32206 910.225963 580.454748 849.822716 580.454748L849.822716 580.454748zM896.77948 56.099261c0-25.889047-21.067116-46.956963-46.956963-46.956963L176.769047 9.142298c-25.889047 0-46.956963 21.068715-46.956963 46.956963L129.812083 470.888234c0 25.889847 21.067916 46.956963 46.956963 46.956963l673.05347 0c25.889847 0 46.956963-21.067116 46.956963-46.956963L896.77948 56.099261 896.77948 56.099261zM658.972912 289.821197c13.524031 0 24.52797 10.98835 24.52797 24.52797 0 13.53962-11.004139 24.54276-24.52797 24.54276l-91.800959 0 93.617727 93.601138c9.578506 9.594295 9.578506 25.122367 0 34.701672-9.579505 9.594295-25.106578 9.594295-34.701672 0l-111.461629-111.493008-111.492208 111.493008c-9.579505 9.594295-25.106578 9.594295-34.701672 0-9.578506-9.563716-9.578506-25.107377 0-34.701672l93.617727-93.601138-94.446365 0c-13.555409 0-24.52797-11.00314-24.52797-24.54276 0-13.53962 10.97276-24.52797 24.52797-24.52797l121.149061 0 0-54.063545-121.149061 0c-13.555409 0-24.52797-10.98835-24.52797-24.543759 0-13.53962 10.97276-24.510582 24.52797-24.510582l121.149061 0 0-115.592628c0-13.53962 10.97276-24.52797 24.52797-24.52797 13.53962 0 24.526371 10.98835 24.526371 24.52797l0 115.592628 121.149061 0c13.523031 0 24.52797 10.971761 24.52797 24.510582 0 13.555409-11.004139 24.543759-24.52797 24.543759l-121.149061 0 0 54.063545L658.972912 289.821197 658.972912 289.821197zM179.696862 619.336186l667.18325 0c17.280284 0 31.304376 14.023292 31.304376 31.304376 0 17.295873-14.024891 31.305175-31.304376 31.305175l-667.18325 0c-17.280284 0-31.305175-14.008502-31.305175-31.305175C148.391487 633.359478 162.416578 619.336186 179.696862 619.336186L179.696862 619.336186zM262.857678 719.760698l500.876606 0c17.281083 0 31.305175 14.024891 31.305175 31.304376 0 17.295873-14.023292 31.304376-31.305175 31.304376L262.857479 782.36945c-17.280284 0-31.305175-14.009302-31.305175-31.304376C231.552304 733.785589 245.561605 719.760698 262.857678 719.760698L262.857678 719.760698z"  horiz-adv-x="1024" />

    
    <glyph glyph-name="fuwu" unicode="&#58914;" d="M888.025119 328.809003M998.60768 634.921843c-16.45374 40.219004-40.761356 76.252685-72.266907 107.117646C865.585037 801.494603 784.863574 834.237331 699.045023 834.237331c-67.750033 0-133.35624-20.700461-188.240245-58.882062-55.047734 39.268352-120.939443 60.565401-189.012841 60.565401-85.934185 0-166.725232-33.456996-227.495294-94.213755-30.783097-30.78412-54.579059-66.744123-70.727855-106.881263-15.578814-38.718837-23.366174-79.555917-23.147186-121.374348 0.216941-41.293475 8.238638-81.427544 23.840988-119.289873 16.169261-39.234583 39.781028-74.244958 70.184479-104.062054 31.880081-31.872918 316.898487-314.696332 322.238099-319.993988 24.555256-24.520463 57.462736-38.025035 92.669586-38.025035 35.211966 0 68.128657 13.507642 92.694145 38.037315 13.521968 13.424754 306.5897 304.401872 321.896314 319.653227 31.426757 29.655414 55.902194 64.510246 72.755024 103.609753 16.331967 37.892005 24.831548 78.118172 25.261337 119.563096C1022.397502 554.936137 1014.539534 595.974809 998.60768 634.921843zM863.890442 352.693993l-1.044796-1.016143c-4.457522-4.470825-212.666564-211.205283-322.137815-319.893704l-0.102331-0.101307c-8.143471-8.139378-19.24225-12.622482-31.250748-12.622482-12.004405 0-23.096021 4.480035-31.229259 12.613272l-0.119727 0.118704c-2.907213 2.8847-291.066145 288.822035-322.203306 319.961242l-0.324388 0.320295c-43.575448 42.672892-67.753103 100.145861-68.076468 161.832805-0.329505 62.796208 23.962761 121.855302 68.397786 166.292374 44.337811 44.327578 103.288434 68.739571 165.992545 68.739571 58.891272 0 115.584482-21.783119 159.634744-61.33595l28.727275-25.795503 29.016871 25.468045c44.068681 38.678928 100.846826 59.98007 159.874197 59.98007 62.939471 0 122.05587-23.931039 166.4428-67.367317 45.465494-44.541449 70.146617-103.509469 69.496817-166.042687C934.347121 452.411089 909.098064 395.17962 863.890442 352.693993zM320.581366 677.049313c-39.73805 0-77.392648-15.771195-106.028848-44.406372-28.636201-28.636201-44.406372-66.291822-44.406372-106.028848 0-16.887622 12.736069-29.623691 29.625738-29.623691s29.624714 12.735046 29.624714 29.623691c0 23.458271 9.292644 45.669132 26.164916 62.541405 16.872273 16.870226 39.081087 26.161846 62.538335 26.161846 15.719007 0 27.841092 11.034311 29.444613 26.182312 2.877537 7.77815 2.232854 15.83771-1.90335 22.545482C340.620771 672.187585 331.252403 677.049313 320.581366 677.049313z"  horiz-adv-x="1038" />

    
    <glyph glyph-name="xiaoxi1" unicode="&#58923;" d="M440.35072 272.95232 46.04416 522.8544l0-393.62048c0-64.63488 52.53632-117.39136 117.31968-117.39136l706.71872 0c64.70656 0 117.31456 52.57728 117.31456 117.39136l0 387.1232-368.99328-242.10944C568.1408 241.28 491.07968 240.80896 440.35072 272.95232L440.35072 272.95232 440.35072 272.95232zM870.08256 737.48992 163.35872 737.48992c-64.70656 0-117.31968-52.57728-117.31968-117.39136l0-0.90112 443.30496-280.96c20.83328-13.2096 58.27584-12.95872 78.93504 0.57856l419.1488 275.00032 0 6.28224C987.39712 684.6976 934.8608 737.48992 870.08256 737.48992L870.08256 737.48992 870.08256 737.48992z"  horiz-adv-x="1024" />

    
    <glyph glyph-name="bangongyongpin" unicode="&#58886;" d="M872.181356 661.739133h-68.845026v87.332299c0 46.260163-37.630857 83.892044-83.892044 83.892044H299.987137c-46.260163 0-83.892044-37.630857-83.892044-83.892044v-87.332299h-68.845025c-45.332523 0-82.226183-36.89366-82.226183-82.252803v-324.916698c0-45.332523 36.89366-82.226183 82.226183-82.226182h68.845025v-150.251076c0-46.260163 37.630857-83.892044 83.892044-83.892044h419.458173c46.260163 0 83.892044 37.630857 83.892044 83.892044V172.34345h68.845026c45.332523 0 82.226183 36.89366 82.226182 82.226182V579.485306c-0.001024 45.360168-36.894684 82.253828-82.227206 82.253827z m-600.158575 87.332299c0 15.428928 12.534404 27.964356 27.964356 27.964356h419.458173c15.428928 0 27.964356-12.534404 27.964356-27.964356v-87.332299H272.022781v87.332299z m475.385861-726.979058c0-15.428928-12.534404-27.963332-27.964356-27.963332H299.987137c-15.428928 0-27.964356 12.534404-27.964356 27.963332V307.301774H747.408642v-285.2094z m151.071208 232.477258c0-14.501288-11.797207-26.298495-26.298494-26.298494h-68.845026V335.26613c0 15.456573-12.507783 27.963332-27.964356 27.963332H244.059449c-15.456573 0-27.964356-12.506759-27.964356-27.963332v-106.994992h-68.845025c-14.501288 0-26.298495 11.797207-26.298495 26.298494V579.485306c0 14.527909 11.797207 26.325116 26.298495 26.325115h724.930264c14.500264 0 26.298495-11.797207 26.298494-26.325115v-324.915674zM792.050042 498.242053m-51.887436 0a51.887437 51.887437 0 1 1 103.774873 0 51.887437 51.887437 0 1 1-103.774873 0Z"  horiz-adv-x="1024" />

    
    <glyph glyph-name="tushu" unicode="&#58973;" d="M836.128 642.863h-556.261c-60.815 0-110.293 49.478-110.293 110.293s49.478 110.293 110.293 110.293h463.551c12.359 0 22.378-10.019 22.378-22.378 0-12.359-10.019-22.378-22.378-22.378h-463.551c-36.138 0-65.537-29.399-65.537-65.537s29.399-65.537 65.537-65.537h556.261c12.359 0 22.378-10.019 22.378-22.378 0-12.359-10.019-22.378-22.378-22.378zM191.952 0.285c-12.359 0-22.378 10.019-22.378 22.378 0 0 0 0 0 0l-0 730.492c0 12.359 10.019 22.378 22.378 22.378s22.378-10.019 22.378-22.378v-730.492c-0-12.359-10.019-22.378-22.378-22.378 0 0 0 0 0 0zM836.128-95.622c0 0 0 0 0 0-12.359 0-22.378 10.019-22.378 22.378 0 0 0 0 0 0v738.485c0 12.359 10.019 22.378 22.378 22.378s22.378-10.019 22.378-22.378v-738.485c0-12.359-10.019-22.378-22.378-22.378 0 0 0 0 0 0zM743.417 642.863c-0 0-0 0-0 0-12.359 0-22.378 10.019-22.378 22.378l0 175.83c0 0 0 0 0 0 0 12.359 10.019 22.378 22.378 22.378 12.359 0 22.378-10.019 22.378-22.378 0-0 0-0 0-0l-0-175.83c0-12.359-10.019-22.378-22.378-22.378 0 0 0 0 0 0zM279.866 9.876c-0 0-0 0-0 0-12.359 0-22.378 10.019-22.378 22.378 0 0 0 0 0 0v521.095c0 12.359 10.019 22.378 22.378 22.378s22.378-10.019 22.378-22.378l-0-521.095c-0-12.359-10.019-22.378-22.378-22.378zM836.128-98.819h-556.261c-60.815 0-110.293 49.478-110.293 110.293 0 12.359 10.019 22.378 22.378 22.378 12.359 0 22.378-10.019 22.378-22.378 0-36.138 29.399-65.537 65.537-65.537h556.261c0 0 0 0 0 0 12.359 0 22.378-10.019 22.378-22.378 0-12.359-10.019-22.378-22.378-22.378-0 0-0 0-0 0zM741.819 205.952h-112.956c-0-0-0-0-0-0-12.359 0-22.378 10.019-22.378 22.378 0 0 0 0 0 0l0 343.133c-0 12.359 10.019 22.378 22.378 22.378 0 0 0 0 0 0h112.956c0 0 0 0 0 0 12.359 0 22.378-10.019 22.378-22.378 0 0 0 0 0 0v-343.133c0-12.359-10.019-22.378-22.378-22.378 0 0 0 0 0 0zM651.241 250.708h68.2v298.377h-68.2v-298.377zM741.819 770.79h-540.225c-8.828 0-15.985 7.157-15.985 15.985 0 8.828 7.157 15.985 15.985 15.985h540.225c8.828-0 15.985-7.157 15.985-15.985 0-8.828-7.157-15.985-15.985-15.985zM741.819 709.998h-540.225c-8.828 0-15.985 7.157-15.985 15.985 0 8.828 7.157 15.985 15.985 15.985h540.225c8.828-0 15.985-7.157 15.985-15.985 0-8.828-7.157-15.985-15.985-15.985z"  horiz-adv-x="1024" />

    
    <glyph glyph-name="plus-select-down" unicode="&#59152;" d="M260.45 511.957l251.524-251.524 251.523 251.524h-503.046zM260.45 511.957z"  horiz-adv-x="1024" />

    
    <glyph glyph-name="circle1" unicode="&#58897;" d="M512 832C264.576 832 64 631.424 64 384c0-247.36 200.576-448 448-448s448 200.64 448 448c0 247.424-200.576 448-448 448z m0-832C299.936 0 128 171.968 128 384 128 596.096 299.936 768 512 768s384-171.904 384-384c0-212.032-171.936-384-384-384zM512 384m-288 0a288 288 0 1 1 576 0 288 288 0 1 1-576 0Z"  horiz-adv-x="1024" />

    
    <glyph glyph-name="bingxiang-" unicode="&#59195;" d="M910.222222 759.466667C910.222222 836.266667 850.488889 896 773.688889 896H250.311111C173.511111 896 113.777778 836.266667 113.777778 759.466667v-750.933334C113.777778-68.266667 173.511111-128 250.311111-128h523.377778c76.8 0 136.533333 59.733333 136.533333 136.533333V759.466667zM250.311111 839.111111h523.377778C816.355556 839.111111 853.333333 802.133333 853.333333 759.466667V497.777778H170.666667V759.466667C170.666667 802.133333 204.8 839.111111 250.311111 839.111111z m523.377778-910.222222H250.311111C204.8-71.111111 170.666667-34.133333 170.666667 8.533333V440.888889h682.666666v-432.355556c0-42.666667-36.977778-79.644444-79.644444-79.644444zM312.888889 554.666667c17.066667 0 28.444444 11.377778 28.444444 28.444444V753.777778c0 17.066667-11.377778 28.444444-28.444444 28.444444s-28.444444-11.377778-28.444445-28.444444v-170.666667c0-17.066667 11.377778-28.444444 28.444445-28.444444zM312.888889 384c-17.066667 0-28.444444-11.377778-28.444445-28.444444v-170.666667c0-17.066667 11.377778-28.444444 28.444445-28.444445s28.444444 11.377778 28.444444 28.444445v170.666667c0 17.066667-11.377778 28.444444-28.444444 28.444444z"  horiz-adv-x="1024" />

    
    <glyph glyph-name="caozuo_suoxiao" unicode="&#59027;" d="M341.46816 326.85056h-167.9872c-61.76256 0-111.99488-50.2272-111.99488-111.98976v-167.9872c0-61.76256 50.2272-111.99488 111.99488-111.99488h167.99232c61.73696 0 111.99488 50.23232 111.99488 111.99488v167.9872c-0.01024 61.76256-50.26304 111.98976-112 111.98976z m55.99232-279.97696c0-30.8736-25.12384-55.99744-55.99744-55.99744h-167.9872c-30.89408 0-55.99744 25.11872-55.99744 55.99744v167.9872c0 30.86848 25.09824 56.00256 55.99744 56.00256h167.99232c30.86848 0 55.99744-25.12896 55.99744-56.00256l-0.00512-167.9872z m372.18304 635.7504l-232.192-232.18688V634.8288a28.00128 28.00128 0 0 1-55.99744 0v-251.9808a28.00128 28.00128 0 0 1 27.99616-27.99616h251.98592a27.9808 27.9808 0 0 1 27.99616 27.99616 27.9808 27.9808 0 0 1-27.99616 27.99616h-184.3968l232.192 232.18688a27.98592 27.98592 0 0 1 0 39.58784 27.92448 27.92448 0 0 1-19.79904 8.20736 27.90912 27.90912 0 0 1-19.7888-8.20224z m75.78624 148.19328H173.48096c-61.76256 0-111.99488-50.2272-111.99488-111.99488v-307.97824a28.00128 28.00128 0 0 1 55.99744 0V718.82752c0 30.86848 25.09824 55.99744 55.99744 55.99744h671.9488c30.86848 0 56.00256-25.12896 56.00256-55.99744v-671.95392c0-30.86848-25.12896-55.99744-56.00256-55.99744h-307.97312a27.9808 27.9808 0 0 1-27.99616-27.99616 27.98592 27.98592 0 0 1 27.99616-28.00128h307.97312c61.74208 0 111.99488 50.2272 111.99488 111.98976V718.82752c0 61.76256-50.2528 111.98976-111.99488 111.98976z"  horiz-adv-x="1024" />

    
    <glyph glyph-name="caozuo_quanpingfangda" unicode="&#59028;" d="M341.468 326.854H173.48c-61.766 0-111.992-50.228-111.992-111.993v-167.987c0-61.767 50.226-111.994 111.992-111.994h167.99c61.737 0 111.992 50.227 111.992 111.994V214.86c-0.001 61.765-50.256 111.993-111.994 111.993z m55.996-279.98c0-30.87-25.127-55.997-55.996-55.997H173.48c-30.896 0-55.995 25.125-55.995 55.997V214.86c0 30.87 25.099 55.998 55.995 55.998h167.99c30.868 0 55.995-25.128 55.995-55.998v-167.987z m131.788 316.18L761.44 595.241v-184.393c0-15.475 12.523-27.999 27.998-27.999 15.449 0 27.999 12.524 27.999 28V662.83c0 15.475-12.55 27.997-27.999 27.997H537.455c-15.476 0-27.999-12.522-27.999-27.997 0-15.476 12.523-27.998 27.999-27.998h184.392L489.66 402.645c-10.936-10.936-10.936-28.654 0-39.59a27.91 27.91 0 0 1 19.796-8.203 27.91 27.91 0 0 1 19.796 8.202z m316.18 467.764H173.48c-61.766 0-111.992-50.227-111.992-111.992v-307.979c0-15.475 12.523-27.999 27.998-27.999 15.448 0 27.999 12.524 27.999 28V718.824c0 30.87 25.099 55.997 55.995 55.997h671.953c30.87 0 55.997-25.128 55.997-55.997v-671.952c0-30.87-25.128-55.997-55.997-55.997H537.455c-15.476 0-27.999-12.523-27.999-27.998 0-15.477 12.523-28 27.999-28h307.978c61.738 0 111.993 50.227 111.993 111.994V718.826c0 61.766-50.255 111.992-111.993 111.992z"  horiz-adv-x="1024" />

    
    <glyph glyph-name="chukudengji" unicode="&#58909;" d="M271.059 85.835h481.882v60.235h-481.882zM180.706 838.776c-66.259 0-120.471-54.212-120.471-120.471v-662.588c0-66.259 54.212-120.471 120.471-120.471h662.588c66.259 0 120.471 54.212 120.471 120.471v662.588c0 66.259-54.212 120.471-120.471 120.471h-90.353v-60.235h90.353c36.141 0 60.235-24.094 60.235-60.235v-662.588c0-30.118-24.094-60.235-60.235-60.235h-662.588c-30.118 0-60.235 24.094-60.235 60.235v662.588c0 30.118 24.094 60.235 60.235 60.235h102.4v60.235h-102.4zM548.141 597.835v-373.459h-60.235v373.459l-102.4-108.424-42.165 42.165 174.682 180.706 180.706-180.706-42.165-42.165-108.424 108.424z"  horiz-adv-x="1024" />

    
    <glyph glyph-name="rukudengji" unicode="&#58916;" d="M271.059 85.835h481.882v60.235h-481.882zM180.706 838.776c-66.259 0-120.471-54.212-120.471-120.471v-662.588c0-66.259 54.212-120.471 120.471-120.471h662.588c66.259 0 120.471 54.212 120.471 120.471v662.588c0 66.259-54.212 120.471-120.471 120.471h-90.353v-60.235h90.353c36.141 0 60.235-24.094 60.235-60.235v-662.588c0-30.118-24.094-60.235-60.235-60.235h-662.588c-30.118 0-60.235 24.094-60.235 60.235v662.588c0 30.118 24.094 60.235 60.235 60.235h102.4v60.235h-102.4zM481.882 344.847v373.459h60.235v-373.459l102.4 108.424 42.165-42.165-174.682-180.706-180.706 180.706 42.165 42.165 108.424-108.424z"  horiz-adv-x="1024" />

    
    <glyph glyph-name="yonghuzhongxin_f" unicode="&#58993;" d="M511.449 835.623c-247.003 0-447.237-200.215-447.237-447.237 0-247.02 200.234-447.237 447.237-447.237 247.022 0 447.237 200.217 447.237 447.237 0 247.022-200.215 447.237-447.237 447.237z m315.209-709.034c-40.872 17.07-137.376 50.555-197.084 68.189-5.113 1.601-5.896 1.856-5.896 23.057 0 17.506 7.188 35.14 14.213 50.063 7.624 16.214 16.65 43.475 19.872 67.933 9.081 10.519 21.419 31.264 29.335 70.809 6.969 34.849 3.712 47.534-0.893 59.436-0.49 1.254-1.001 2.491-1.345 3.731-1.748 8.17 0.637 50.627 6.606 83.564 4.13 22.602-1.038 70.663-32.156 110.427-19.654 25.131-57.271 55.977-125.949 60.273l-37.67-0.037c-67.514-4.258-105.13-35.104-124.785-60.235-31.118-39.763-36.286-87.824-32.173-110.408 5.986-32.956 8.371-75.413 6.66-83.421-0.382-1.401-0.893-2.639-1.383-3.893-4.605-11.902-7.862-24.587-0.893-59.436 7.916-39.545 20.254-60.289 29.335-70.809 3.222-24.458 12.249-51.719 19.872-67.933 5.587-11.865 8.19-28.006 8.19-50.827 0-21.201-0.783-21.456-5.568-22.967-61.765-18.234-160.072-53.756-196.723-69.808-60.289 71.392-96.741 163.547-96.741 264.092 0 226.058 183.911 409.967 409.967 409.967 226.058 0 409.967-183.909 409.967-409.967 0-99.455-35.631-190.736-94.758-261.8z"  horiz-adv-x="1024" />

    
    <glyph glyph-name="cangku" unicode="&#58922;" d="M1024-128h-111.616V441.636571L512 749.568l-400.384-307.931429V-128H0V502.272L512 896l512-393.728V-128M219.428571-128h219.428572v219.428571H219.428571zM219.428571 164.571429h219.428572V384H219.428571zM512-128h219.428571v219.428571H512z"  horiz-adv-x="1024" />

    
    <glyph glyph-name="fuwuqi" unicode="&#59821;" d="M896 160H128c-35.3 0-64-28.7-64-64v-160c0-35.3 28.7-64 64-64h768c35.3 0 64 28.7 64 64V96c0 35.3-28.7 64-64 64z m0-224H128V96h768v-160zM896 896H128C92.7 896 64 867.3 64 832v-160c0-35.3 28.7-64 64-64h768c35.3 0 64 28.7 64 64V832c0 35.3-28.7 64-64 64z m0-224H128V832h768v-160zM896 528H128c-35.3 0-64-28.7-64-64v-160c0-35.3 28.7-64 64-64h768c35.3 0 64 28.7 64 64V464c0 35.3-28.7 64-64 64z m0-224H128V464h768v-160zM768 752m-32 0a32 32 0 1 1 64 0 32 32 0 1 1-64 0ZM768 384m-32 0a32 32 0 1 1 64 0 32 32 0 1 1-64 0ZM768 16m-32 0a32 32 0 1 1 64 0 32 32 0 1 1-64 0ZM640 752m-32 0a32 32 0 1 1 64 0 32 32 0 1 1-64 0ZM640 384m-32 0a32 32 0 1 1 64 0 32 32 0 1 1-64 0ZM640 16m-32 0a32 32 0 1 1 64 0 32 32 0 1 1-64 0Z"  horiz-adv-x="1024" />

    
    <glyph glyph-name="erji-dapingjianguan" unicode="&#60096;" d="M864 108.8h-704c-51.2 0-96 44.8-96 96V672C64 723.2 108.8 768 160 768h704c51.2 0 96-44.8 96-96v-467.2c0-57.6-44.8-96-96-96zM160 704c-19.2 0-32-12.8-32-32v-467.2c0-19.2 12.8-32 32-32h704c19.2 0 32 12.8 32 32V672c0 19.2-12.8 32-32 32h-704zM928 0h-832c-19.2 0-32 12.8-32 32s12.8 32 32 32h832c19.2 0 32-12.8 32-32s-12.8-32-32-32zM204.8 492.8c-19.2 0-32 12.8-32 32V620.8c0 19.2 12.8 32 32 32h102.4c12.8 0 32-12.8 32-32s-19.2-32-32-32H236.8v-70.4c0-12.8-12.8-25.6-32-25.6zM307.2 217.6H204.8c-19.2 0-32 12.8-32 32V352c0 12.8 12.8 32 32 32s32-12.8 32-32v-70.4h70.4c19.2 0 32-12.8 32-32s-19.2-32-32-32zM819.2 492.8c-19.2 0-32 12.8-32 32v64h-70.4c-19.2 0-32 12.8-32 32s12.8 32 32 32h102.4c19.2 0 32-12.8 32-32v-102.4c0-12.8-12.8-25.6-32-25.6zM819.2 217.6h-102.4c-19.2 0-32 12.8-32 32s12.8 32 32 32h70.4V352c0 19.2 12.8 32 32 32s32-12.8 32-32v-102.4c0-19.2-12.8-32-32-32z"  horiz-adv-x="1024" />

    
    <glyph glyph-name="icon-cable" unicode="&#58902;" d="M796.444444-28.444444v-33.194667A66.360889 66.360889 0 0 0 730.083556-128H293.916444A66.360889 66.360889 0 0 0 227.555556-61.639111V-28.444444h-45.738667A124.928 124.928 0 0 0 56.888889 96.483556V771.072A124.928 124.928 0 0 0 181.816889 896h660.366222A124.928 124.928 0 0 0 967.111111 771.072v-674.588444A124.928 124.928 0 0 0 842.183111-28.444444H796.444444zM181.816889 810.666667A39.594667 39.594667 0 0 1 142.222222 771.072v-674.588444A39.594667 39.594667 0 0 1 181.816889 56.888889h660.366222A39.594667 39.594667 0 0 1 881.777778 96.483556V771.072A39.594667 39.594667 0 0 1 842.183111 810.666667H181.816889zM550.968889 358.840889L788.764444 596.622222c29.212444 29.212444 29.212444 77.582222 0 106.808889-29.226667 29.212444-77.596444 29.212444-106.808888 0L444.16 465.635556c-57.429333 18.147556-122.922667 5.048889-168.248889-40.291556-64.483556-64.483556-64.483556-170.282667 0-234.766222 64.469333-64.469333 170.268444-64.469333 234.752 0 46.336 45.340444 59.448889 110.833778 40.291556 168.263111z m-82.616889-104.789333a14.606222 14.606222 0 0 0 0-21.148445c-41.301333-41.315556-107.804444-41.315556-150.115556 0-41.315556 41.301333-41.315556 107.804444 0 150.115556 37.276444 37.276444 96.711111 40.305778 138.026667 10.083555l268.003556 266.993778a14.606222 14.606222 0 0 0 21.162666 0 14.606222 14.606222 0 0 0 0-21.162667L468.352 360.860444a14.606222 14.606222 0 0 0-21.148444 0c-29.226667 29.212444-77.582222 29.212444-106.808889 0-29.212444-29.226667-29.212444-77.582222 0-106.808888 29.226667-29.212444 77.582222-29.212444 106.808889 0 5.034667 6.058667 15.104 6.058667 21.148444 0z m278.087111 256.924444a14.606222 14.606222 0 0 0 21.148445 0l21.162666-21.148444a14.606222 14.606222 0 0 0 0-21.162667 14.606222 14.606222 0 0 0-21.162666 0l-21.148445 21.162667c-6.044444 5.034667-6.044444 15.104 0 21.148444z m0-85.632a14.606222 14.606222 0 0 0-21.162667 0l-21.162666 21.148444a14.606222 14.606222 0 0 0 0 21.162667 14.606222 14.606222 0 0 0 21.162666 0l21.162667-21.162667a16.696889 16.696889 0 0 0 0-21.148444z m-43.320889-42.325333a14.606222 14.606222 0 0 0-21.162666 0l-21.162667 21.162666a14.606222 14.606222 0 0 0 0 21.162667 14.606222 14.606222 0 0 0 21.162667 0l21.162666-21.162667c6.044444-6.044444 6.044444-16.113778 0-21.162666z"  horiz-adv-x="1024" />

    
    <glyph glyph-name="gaiicon-" unicode="&#59092;" d="M824.888889 770.844444L910.222222 725.333333v-102.4l-85.333333-51.2-85.333333 51.2V725.333333l85.333333 45.511111m0 125.155556c-11.377778 0-17.066667 0-28.444445-5.688889l-142.222222-85.333333c-17.066667-11.377778-28.444444-28.444444-28.444444-51.2v-164.977778c0-22.755556 11.377778-39.822222 28.444444-51.2L796.444444 457.955556c11.377778-5.688889 17.066667-5.688889 28.444445-5.688889s17.066667 0 28.444444 5.688889l142.222223 85.333333c17.066667 5.688889 28.444444 28.444444 28.444444 45.511111V753.777778c0 22.755556-11.377778 39.822222-28.444444 51.2L853.333333 890.311111c-11.377778 5.688889-17.066667 5.688889-28.444444 5.688889zM341.333333 520.5333330000001l227.555556-130.844444v-261.688889l-227.555556-130.844444-227.555555 130.844444V389.688889l227.555555 130.844444m0 119.466667c-11.377778 0-17.066667 0-28.444444-5.688889l-284.444445-164.977778c-17.066667-5.688889-28.444444-28.444444-28.444444-45.511111v-329.955555c0-22.755556 11.377778-39.822222 28.444444-51.2l284.444445-164.977778c11.377778-5.688889 17.066667-5.688889 28.444444-5.688889s17.066667 0 28.444445 5.688889l284.444444 164.977778c17.066667 11.377778 28.444444 28.444444 28.444445 51.2V423.822222c0 22.755556-11.377778 39.822222-28.444445 51.2l-284.444444 164.977778H341.333333z"  horiz-adv-x="1024" />

    
    <glyph glyph-name="ditu" unicode="&#58884;" d="M854.445 539.116c-4.39-9.779-9.241-19.824-14.472-30.048l84.737-41.39v-474.522l-181.908 92.905v-6.178h-35.873v3.185L511.94-16.51800000000003l-192.225 76.217v-1.904h-35.873v4.826l-182.663-72.425V463.404l182.663 102.099V582.8399999999999h35.873v-31.513l190.564-165.289 22.458 11.766a1711.41 1711.41 0 0 0-19.763 31.049L300.47 613.173 65.306 481.728v-541.435l232.787 92.299 215.856-85.585 213.846 109.217 232.787-118.891V487.272l-106.137 51.844zM319.715 582.8399999999999h-35.873V57.79499999999996h35.873V551.327zM706.929 567.412c12.474 9.77 21.844 22.74 26.584 37.516h-26.584v-37.516zM706.929 300.18399999999997V79.88300000000004h35.873V350.76800000000003a2540.831 2540.831 0 0 0-35.873-50.584zM653.56 229.428s22.539 28.368 53.369 70.756a2538.136 2538.136 0 0 1 35.873 50.585c33.7 48.81 70.343 105.857 97.171 158.299 5.23 10.224 10.082 20.269 14.472 30.048 15.251 33.974 24.865 64.69 24.865 88.151 0 113.722-101.072 205.912-225.75 205.912s-225.75-92.19-225.75-205.912c0-47.469 39.334-124.624 85.164-198.414a1711.41 1711.41 0 0 1 19.763-31.049c58.958-90.517 120.823-168.376 120.823-168.376z m-2.691 476.128c47.554 0 86.103-35.162 86.103-78.537a72.156 72.156 0 0 0-3.459-22.091c-4.74-14.776-14.11-27.747-26.584-37.516-15.064-11.798-34.648-18.929-56.06-18.929-47.553 0-86.103 35.162-86.103 78.537 0 43.374 38.549 78.536 86.103 78.536z"  horiz-adv-x="1024" />

    
    <glyph glyph-name="shouye" unicode="&#58888;" d="M683.04896-12.99456V231.4752H529.4592v-245.00224c-4.70016 0-8.86784-0.53248-12.54912-0.53248H299.57632c-25.05728 0-41.7792 16.18944-41.7792 42.31168-0.53248 100.45952-0.53248 200.96 0 301.41952 0 5.23264 4.16768 12.02176 7.84896 15.65696C331.4688 402.81088 397.2864 460.24704 463.104 518.26176c43.86304 38.144 87.77216 76.7744 131.64032 114.9184 3.6352 3.1488 6.784 5.76512 10.9568 9.40032 26.12224-22.97344 52.2496-45.46048 78.37184-68.43392 85.68832-75.22304 171.33568-150.44096 257.5104-225.13152 9.40032-7.84896 13.04064-16.18944 13.04064-29.27104a25647.0016 25647.0016 0 0 1 0-286.24896c0-17.2544-4.16768-32.37888-18.27328-41.7792-5.23264-3.6352-12.02176-6.25152-17.7408-6.25152-76.7744-0.53248-154.08128 0-230.89664 0-1.51552 0.52224-2.58048 1.01376-4.66432 1.54112zM798.49984 663.47008V778.38848c0 23.50592 5.23264 29.27104 27.6736 29.27104h103.9616c17.7408 0 24.0384-6.784 24.0384-26.65472 0-79.39072 0.53248-159.31392 0-238.70464 0-12.54912 3.1488-20.35712 12.02176-28.20608 38.144-32.37888 75.22304-65.8176 112.83456-98.72896 18.27328-16.18944 18.80576-24.0384 3.1488-43.37664-9.40544-11.48928-18.27328-23.50592-28.20608-35.52768-11.48928-14.63808-21.42208-15.17056-34.9952-3.1488-133.19168 118.0672-265.89184 235.60192-399.08352 353.664-4.70016 4.16768-9.40032 7.84896-14.63808 12.54912-29.76256-26.65472-59.56608-52.78208-89.32352-78.85824-108.12928-95.58016-215.7312-191.20128-323.86048-286.78144-14.63808-13.04064-23.50592-12.02176-36.06016 3.1488-9.9328 12.54912-20.35712 25.58976-30.29504 38.144-11.48928 15.17056-10.9568 24.57088 3.1488 37.07904 60.05248 53.26848 120.68352 107.06432 180.736 160.37888 80.45568 71.05024 160.91136 141.57312 241.32096 213.11488 36.54656 32.37888 72.07424 32.37888 108.66176 0 43.37664-38.67648 86.7072-76.7744 130.08384-115.45088 2.04288-1.59744 4.66432-3.68128 8.832-6.83008z"  horiz-adv-x="1210" />

    
    <glyph glyph-name="shuju" unicode="&#59257;" d="M109.30935 53.224096c47.58262 0 86.288076 38.70648 86.288076 86.288076V628.486805c0 47.58262-38.705456 86.289099-86.288076 86.289099-47.583643 0-86.289099-38.70648-86.2891-86.289099V139.512172c0-47.581597 38.705456-86.288076 86.2891-86.288076zM80.543247 628.486805c0 15.870424 12.893632 28.76201 28.765079 28.76201 15.869401 0 28.760987-12.891586 28.760987-28.76201V139.512172c0-15.869401-12.892609-28.76201-28.760987-28.76201-15.872471 0-28.76508 12.893632-28.765079 28.76201V628.486805zM368.177671 53.224096c47.58262 0 86.288076 38.70648 86.288076 86.288076V398.381517c0 47.58262-38.705456 86.290123-86.288076 86.290122-47.583643 0-86.292169-38.707503-86.292169-86.290122V139.512172c0-47.581597 38.708526-86.288076 86.292169-86.288076z m-28.76508 345.157421c0 15.870424 12.893632 28.763033 28.76508 28.763033 15.868378 0 28.760987-12.892609 28.760987-28.763033V139.512172c0-15.869401-12.893632-28.76201-28.760987-28.76201-15.872471 0-28.76508 12.893632-28.76508 28.76201V398.381517zM885.927617 53.224096c47.580573 0 86.289099 38.70648 86.2891 86.288076V312.090371c0 47.583643-38.708526 86.291146-86.2891 86.291146-47.58262 0-86.291146-38.707503-86.291146-86.291146V139.512172c0-47.581597 38.708526-86.288076 86.291146-86.288076z m-28.763033 258.866275c0 15.843818 12.863957 28.764056 28.763033 28.764056 15.842795 0 28.763033-12.920238 28.763033-28.764056V139.512172c0-15.869401-12.920238-28.76201-28.763033-28.76201-15.899077 0-28.763033 12.893632-28.763033 28.76201V312.090371zM627.060319 53.224096c47.58262 0 86.288076 38.70648 86.288076 86.288076V743.538938c0 47.583643-38.705456 86.290123-86.288076 86.290122-47.583643 0-86.289099-38.70648-86.289099-86.290122V139.512172c0-47.581597 38.705456-86.288076 86.289099-86.288076z m-28.76508 690.314842c0 15.842795 12.866003 28.763033 28.764057 28.763033 15.841772 0 28.760987-12.920238 28.760986-28.763033V139.512172c0-15.869401-12.919215-28.76201-28.760986-28.76201-15.898053 0-28.764056 12.893632-28.764057 28.76201V743.538938zM23.02025-4.302994h977.9595v-57.526066H23.02025z"  horiz-adv-x="1024" />

    
    <glyph glyph-name="huoche" unicode="&#58912;" d="M452.128 156.704c0 18.528-7.616 36.896-20.736 50.016a71.584 71.584 0 0 1-50.048 20.704c-18.528 0-36.96-7.616-50.048-20.704-13.12-13.088-20.736-31.456-20.736-50.016s7.616-36.896 20.736-49.984a71.68 71.68 0 0 1 50.048-20.736c18.56 0 36.96 7.648 50.048 20.736a71.36 71.36 0 0 1 20.736 49.984z m493.12 0c0 18.528-7.584 36.896-20.704 50.016a71.68 71.68 0 0 1-50.08 20.704 71.68 71.68 0 0 1-50.048-20.704c-13.088-13.088-20.736-31.456-20.736-50.016s7.648-36.896 20.736-49.984c13.12-13.088 31.52-20.736 50.048-20.736a71.68 71.68 0 0 1 50.08 20.736 71.36 71.36 0 0 1 20.704 49.984z m-665.664 5.472a104 104 0 0 0 48.992 88.256H192.16v-93.728h87.584a105.152 105.152 0 0 0-0.16 5.472zM163.872 345.344H0v-38.528h164.384a22.656 22.656 0 0 1 22.464-17.568h500c12.672 0 22.976 9.888 22.976 22.048v336.32a22.528 22.528 0 0 1-22.976 22.08h-500c-12.672 0-22.976-9.888-22.976-22.08v-105.184H18.752v-52.288h145.12v-36H74.56v-74.56h89.312v-34.24zM440.8 250.432a102.848 102.848 0 0 0 50.496-88.48c0-1.792-0.064-3.488-0.128-5.248H772a103.68 103.68 0 0 0 22.88 70.72 106.153 106.153 0 0 0 25.952 23.008l2.112 1.312a104.032 104.032 0 0 0 99.264 3.84c2.432-1.216 4.8-2.464 7.136-3.84l2.08-1.312a103.68 103.68 0 0 0 48.864-93.728h43.488v98.88h-0.032V362.496s0.48 13.696 0 18.208c-1.6 16.256-11.2 74.336-46.336 124.576-45.696 65.344-79.488 76.8-79.488 76.8H732.032v-331.648H440.8z m329.184 201.6v91.264h108.064l18.56-18.72 18.08-17.888 18.144-18.208 18.24-18.4v-72.864h-181.12v54.816h0.032z"  horiz-adv-x="1024" />

    
    <glyph glyph-name="icon-" unicode="&#58930;" d="M512-77.027556a457.272889 457.272889 0 0 0-328.135111 136.533334l-10.353778 10.467555 68.266667 135.281778L261.688889 181.020444a321.763556 321.763556 0 0 1 500.622222 0l20.138667 24.803556 68.266666-135.281778-10.353777-10.467555A457.272889 457.272889 0 0 0 512-77.027556zM223.914667 78.734222a419.84 419.84 0 0 1 576.739555 0L773.688889 131.640889a363.292444 363.292444 0 0 0-523.377778 0zM228.238222 226.076444l-151.210666 3.527112-4.437334 14.108444A460.8 460.8 0 0 0 380.700444 823.068444L394.808889 827.733333l87.495111-123.448889-31.288889-6.030222A321.991111 321.991111 0 0 1 216.177778 255.431111zM107.633778 270.222222l59.164444-1.365333A363.406222 363.406222 0 0 0 412.672 731.022222l-34.133333 48.241778A419.953778 419.953778 0 0 1 107.633778 270.222222zM802.702222 235.52l11.377778 29.809778a321.991111 321.991111 0 0 1-250.311111 433.834666l-31.516445 5.006223 83.171556 126.293333 14.222222-3.640889A461.141333 461.141333 0 0 0 957.667556 258.844444l-3.868445-14.222222zM600.746667 733.639111a363.178667 363.178667 0 0 0 261.688889-453.518222l59.164444 3.527111a420.067556 420.067556 0 0 1-288.312889 499.484444zM507.221333 204.686222a191.601778 191.601778 0 1 0 192.284445 191.601778 192.056889 192.056889 0 0 0-192.284445-191.601778z m0 342.129778a150.528 150.528 0 1 1 151.096889-150.528 151.096889 151.096889 0 0 1-151.096889 150.528z"  horiz-adv-x="1024" />

    
    <glyph glyph-name="kucun1" unicode="&#58913;" d="M89.15968 387.99872c152.3712 152.3968 304.74752 304.768 457.1136 457.1392h-36.20352c152.47872-152.48384 304.95232-304.96768 457.42592-457.47712 23.36256-23.38304 59.56608 12.85632 36.1984 36.22912L546.26816 881.34144c-9.86112 9.86112-26.3424 9.86112-36.20352 0L52.94592 424.22272c-23.35744-23.36768 12.84608-59.60704 36.21376-36.224zM829.88544-41.40032H225.94048c-29.96224 0-31.232 27.20256-31.232 49.00864v367.68256c0 33.01888-51.2 33.01888-51.2 0v-369.94048c0-31.02208 5.504-59.7504 31.6416-80.36352 19.6864-15.52896 42.0608-17.59232 65.7664-17.59232h588.96896c33.01376 0.00512 33.01376 51.20512 0 51.20512zM860.60544 375.296v-312.17152c0-33.01376 51.2-33.01376 51.2 0V375.296c0 33.01888-51.2 33.01888-51.2 0zM415.57504 293.4528H289.28l25.6-25.6V394.14784l-25.6-25.6h126.29504l-25.6 25.6v-126.29504c0-33.01376 51.2-33.01376 51.2 0V394.14784c0 13.95712-11.64288 25.6-25.6 25.6H289.28c-13.95712 0-25.6-11.64288-25.6-25.6v-126.29504c0-13.95712 11.64288-25.6 25.6-25.6h126.29504c33.01888 0 33.01888 51.2 0 51.2zM636.47744 69.10976H510.17728l25.6-25.6v126.29504l-25.6-25.6h126.30016l-25.6 25.6v-126.29504c0-33.01376 51.2-33.01376 51.2 0v126.29504c0 13.95712-11.648 25.6-25.6 25.6H510.17728c-13.95712 0-25.6-11.64288-25.6-25.6v-126.29504c0-13.95712 11.64288-25.6 25.6-25.6h126.30016c33.01376 0 33.01376 51.2 0 51.2zM415.57504 70.57408H289.28l25.6-25.6v126.29504l-25.6-25.6h126.29504l-25.6 25.6v-126.29504c0-33.01376 51.2-33.01376 51.2 0v126.29504c0 13.95712-11.64288 25.6-25.6 25.6H289.28c-13.95712 0-25.6-11.64288-25.6-25.6v-126.29504c0-13.95712 11.64288-25.6 25.6-25.6h126.29504c33.01888 0 33.01888 51.2 0 51.2z"  horiz-adv-x="1024" />

    


  </font>
</defs>
</svg>
